Friday, 14 August 2009

David Lanz & Michael Jones - Piano Solos - Solstice [Narada Lotus, 1985]


David Lanz & Michael Jones - Piano Solos - Solstice [Narada Lotus, 1985]
EAC Rip | FLAC, IMG+CUE, LOG | 126MB | Covers, Booklet | TIFF (LWZ) 300ppi | 6 MB
New Age | 1985 | Label: Narada Lotus | Catalog Number: ND-61008 | RAR 10% Rec. | RS.com

New age pianists split performance duties down the center on this holiday album. Each chose to perform an extended variation/improvisation, plus a shorter song — only four tracks in all. Jones performs an eleven-and-a-half minute variation on "Good King Wenceslas" and the radiant "Carol of the Bells." The "Wenceslas" variations are not the typical jolly-good version you might hear from carolers. Jones opens up the vistas of passages giving a sense of warmth. Then he will flit the melody like the wind swirling snowflakes. At these moments, you might forget about the tune, but of course the warmth of the noble melody is repeated. "Carol of the Bells" peals out the theme immediately, and Jones bases the variations on rhythmic patterns rather than the melody; he reinvites the melody in a somber tone. David Lanz's "What Child is This" is delicate and reverential. The album ends with a dynamic 12-minute variation on the famous theme from Pachelbel's "Canon in D Major." Because of the abstractions in the variations, this album will be suitable for those occasions where you want suggestions of Christmas, but don't want to go overboard.
Carol Wright, All Music Guide

Tracklist (# - composer - title -time) :
1. Christmas Traditional - Good King Wenceslas (Piae Cantiones, 1582) - 11:34
2. Mykola Dmytrovich Leontovych - Carol of the Bells - 06:43
3. Christmas Traditional - What Child Is This? (Greensleeves) - 04:26
4. David Lanz - Improvisations on a Theme (adapted from Pachelbel's Canon in D major) - 12:00

EAC log

Exact Audio Copy V0.99 prebeta 5 from 4. May 2009

EAC extraction logfile from 13. August 2009, 17:06

David Lanz & Michael Jones / Solstice

Used drive : PLEXTOR DVDR PX-755A Adapter: 2 ID: 0

Read mode : Burst

Read offset correction : 30
Overread into Lead-In and Lead-Out : Yes
Fill up missing offset samples with silence : Yes
Delete leading and trailing silent blocks : No
Null samples used in CRC calculations : Yes
Used interface : Native Win32 interface for Win NT & 2000

Used output format : User Defined Encoder
Selected bitrate : 768 kBit/s
Quality : High
Add ID3 tag : No
Command line compressor : C:\Program Files\Exact Audio Copy\FLAC\FLAC.EXE
Additional command line options : -6 -V -T "ARTIST=%a" -T "TITLE=%t" -T "ALBUM=%g" -T "DATE=%y" -T "TRACKNUMBER=%n" -T "GENRE=%m" -T "COMMENT=%e" %s -o %d


TOC of the extracted CD

Track | Start | Length | Start sector | End sector
---------------------------------------------------------
1 | 0:00.37 | 11:34.33 | 37 | 52119
2 | 11:34.70 | 6:43.30 | 52120 | 82374
3 | 18:18.25 | 4:26.40 | 82375 | 102364
4 | 22:44.65 | 12:00.40 | 102365 | 156404


Range status and errors

Selected range

Filename D:\temp\David Lanz & Michael Jones - Solstice.wav

Timing problem 0:02:05

Peak level 100.0 %
Test CRC 0B3EEB9D
Copy CRC 0B3EEB9D
Copy finished

No errors occurred


AccurateRip summary

Track 1 cannot be verified as accurate (confidence 3) [CFF47252], AccurateRip returned [27295A1C]
Track 2 cannot be verified as accurate (confidence 3) [09B66AE0], AccurateRip returned [EDECB808]
Track 3 cannot be verified as accurate (confidence 3) [AABDBAB3], AccurateRip returned [762B07CF]
Track 4 cannot be verified as accurate (confidence 3) [7B23FB7B], AccurateRip returned [8989D60D]

No tracks could be verified as accurate
You may have a different pressing from the one(s) in the database

End of status report

(Although AR didn't verifie, Test & Copy CRC are perfectly identical - probably there is more than one release.)

DOWNLOAD
Audio lossless FLAC:
http://rapidshare.com/files/266603915/David_Lanz___Michael_Jones_-_Solstice.rar

Album art lossless TIFF 300ppi :
http://rapidshare.com/files/266642677/David_Lanz___Michael_Jones_-_Solstice.albumart.rar

No password

**Please wait for 5 seconds and click Skip Ads to get the original link. Thanks!

Related Posts by Categories



1 comments:

Anonymous 20 May 2010 at 11:41  

Really appreciate your sharing! Michael Jones's music is awesome!

Post a Comment