Monday, 29 June 2009

Michael Jackson - Instrumental Version Collection (1988 - Lossless)


Michael Jackson - Instrumental Version Collection (1988 - Lossless)
EAC RIP | Pop/Rock | FLAC+CUE+LOG+COVER | 224 MB
Michael Jackson | Label: sony japan | Release: 1988 | Catalog: 20.8P-5158
Hotfile & FileFactory




Tracks list:
1 Billie Jean (Instrumental Version) (6:18)
2 Thriller (Instrumental) (5:59)
3 Bad (Dub Version) (4:06)
Mixed By - Bruce Swedien
4 The Way You Make Me Feel (Dub Version) (5:05)
Mixed By - Bruce Swedien
5 Man In The Mirror (Instrumental) (5:05)
Mixed By - Bruce Swedien
6 Dirty Diana (Instrumental) (4:41)
Mixed By - Bruce Swedien
7 Another Part Of Me (Instrumental) (3:48)
Mixed By - Bruce Swedien

EAC LOG
Exact Audio Copy V0.99 prebeta 3 from 28. July 2007

EAC extraction logfile from 6. May 2008, 16:04

Michael Jackson / Instrumental Version Collection

Used drive : SONY DVD-ROM DDU1615 Adapter: 0 ID: 0

Read mode : Secure
Utilize accurate stream : Yes
Defeat audio cache : Yes
Make use of C2 pointers : No

Read offset correction : 6
Overread into Lead-In and Lead-Out : No
Fill up missing offset samples with silence : Yes
Delete leading and trailing silent blocks : No
Null samples used in CRC calculations : Yes
Used interface : Native Win32 interface for Win NT & 2000
Gap handling : Appended to previous track

Used output format : User Defined Encoder
Selected bitrate : 192 kBit/s
Quality : High
Add ID3 tag : No
Command line compressor : C:\Program Files\Exact Audio Copy\FLAC1\bin\flac.exe
Additional command line options : -8 -A tukey(0.25) -A gauss(0.1875) -b 4096 -V -T "artist=%a" -T "title=%t" -T "album=%g" -T "date=%y" -T "tracknumber=%n" -T "genre=%m" %s --sector-align


TOC of the extracted CD

Track | Start | Length | Start sector | End sector
---------------------------------------------------------
1 | 0:00.00 | 6:19.37 | 0 | 28461
2 | 6:19.37 | 6:00.38 | 28462 | 55499
3 | 12:20.00 | 4:07.50 | 55500 | 74074
4 | 16:27.50 | 5:07.12 | 74075 | 97111
5 | 21:34.62 | 5:06.13 | 97112 | 120074
6 | 26:41.00 | 4:43.00 | 120075 | 141299
7 | 31:24.00 | 3:48.55 | 141300 | 158454


Track 1

Filename F:\Matt's Stuff\What.cd\Michael Jackson - Instrumental Version Collection\Michael Jackson - Instrumental Version Collection FLAC\01. Billie Jean (Instrumental Version).wav

Pre-gap length 0:00:02.00

Peak level 97.2 %
Track quality 100.0 %
Copy CRC EC3BF562
Track not present in AccurateRip database
Copy OK

Track 2

Filename F:\Matt's Stuff\What.cd\Michael Jackson - Instrumental Version Collection\Michael Jackson - Instrumental Version Collection FLAC\02. Thriller (Instrumental).wav

Pre-gap length 0:00:00.40

Peak level 92.5 %
Track quality 100.0 %
Copy CRC F25451AE
Track not present in AccurateRip database
Copy OK

Track 3

Filename F:\Matt's Stuff\What.cd\Michael Jackson - Instrumental Version Collection\Michael Jackson - Instrumental Version Collection FLAC\03. Bad (Dub Version).wav

Pre-gap length 0:00:01.05

Peak level 85.5 %
Track quality 100.0 %
Copy CRC CFD15C20
Track not present in AccurateRip database
Copy OK

Track 4

Filename F:\Matt's Stuff\What.cd\Michael Jackson - Instrumental Version Collection\Michael Jackson - Instrumental Version Collection FLAC\04. The way you make me feel (Dub Version).wav

Pre-gap length 0:00:01.15

Peak level 82.5 %
Track quality 99.9 %
Copy CRC EFFA692B
Track not present in AccurateRip database
Copy OK

Track 5

Filename F:\Matt's Stuff\What.cd\Michael Jackson - Instrumental Version Collection\Michael Jackson - Instrumental Version Collection FLAC\05. Man in the mirror (Instrumental Version).wav

Pre-gap length 0:00:01.25

Peak level 83.9 %
Track quality 99.9 %
Copy CRC 053595EC
Track not present in AccurateRip database
Copy OK

Track 6

Filename F:\Matt's Stuff\What.cd\Michael Jackson - Instrumental Version Collection\Michael Jackson - Instrumental Version Collection FLAC\06. Dirty Diana (Instrumental).wav

Pre-gap length 0:00:01.00

Peak level 97.7 %
Track quality 99.8 %
Copy CRC 97915D1C
Track not present in AccurateRip database
Copy OK

Track 7

Filename F:\Matt's Stuff\What.cd\Michael Jackson - Instrumental Version Collection\Michael Jackson - Instrumental Version Collection FLAC\07. Another part of me (Instrumental).wav

Pre-gap length 0:00:01.15

Peak level 93.3 %
Track quality 99.9 %
Copy CRC BF7AE68A
Track not present in AccurateRip database
Copy OK


None of the tracks are present in the AccurateRip database

No errors occurred

End of status report


**Please wait for 5 seconds and click Skip Ads to get the original link. Thanks!

Related Posts by Categories



0 comments:

Post a Comment