Monday, 29 June 2009

Chloe Agnew - Walking In The Air (2004)


Chloe Agnew - Walking In The Air (2004)
EAC-Rip | MP3 VBR HQ | 95 MB | FLAC, IMG+CUE, LOG | 311 MB | 5% Recovery | Covers
Celtic / New Age / Easy Listening | Label: CelticMusic

"Walking In The Air," the solo effort by Celtic Woman's Chloe Agnew, has a mixture of all kinds of sounds - Broadway, Classic, etc, and the young lady handles all of the genres with a charming grace that belies her youth and points to even greater things ahead. Like her fellow(but ex)Celtic Woman Hayley Westenra, young Ms. Agnew is musically gifted and seems capable of singing anything. (Amazon.com)

Track Listing
-------------
[3:39] 01. Waking In The Air (Howard Blake)
[4:22] 02. The Prayer (David Foster/Carol Bayer-Sager)
[3:42] 03. Nella Fantasia feat. David Agnew (Ennio Morricone)
[4:22] 04. Someday (Alen Menken/Steven Schwartz)
[2:14] 05. Vivaldi's Rain (from 'The Four Seasons')
[4:07] 06. Going Home (Dvorak)
[3:58] 07. Panis Angelicus (Cesar Franck)
[4:37] 08. Vincent - Starry, Starry Night (Don McLean)
[4:45] 09. Jesu Joy of Man's Desiring (J.S. Bach/Arr. David Downes/MCPS)
[3:55] 10. To Where You Are (Richard Marx)
[3:49] 11. One World (David Downes/Shay Healy/MCPS)
[3:58] 12. Sigma (Rolf Lovland/David Agnew)
[3:36] 13. Winter's Light (from 'Secret Garden')
[2:20] 14. Brahms' Lullabye (Brahms/Arr. David Downes/MCPS)
[2:26] 15. Gabriel's Obo (Ennio Morricone)

Total Playing Time: 55:55 (min:sec)



EAC-AccurateRip
Exact Audio Copy V0.99 prebeta 4 from 23. January 2008

EAC extraction logfile from 1. June 2009, 21:15

Chloe / Walking in the Air

Used drive : ASUS DVD-E616P2 Adapter: 0 ID: 0

Read mode : Secure
Utilize accurate stream : Yes
Defeat audio cache : Yes
Make use of C2 pointers : No

Read offset correction : 738
Overread into Lead-In and Lead-Out : No
Fill up missing offset samples with silence : Yes
Delete leading and trailing silent blocks : No
Null samples used in CRC calculations : Yes
Used interface : Installed external ASPI interface

Used output format : Internal WAV Routines
Sample format : 44.100 Hz; 16 Bit; Stereo


TOC of the extracted CD

Track | Start | Length | Start sector | End sector
---------------------------------------------------------
1 | 0:00.00 | 3:39.16 | 0 | 16440
2 | 3:39.16 | 4:22.14 | 16441 | 36104
3 | 8:01.30 | 3:42.03 | 36105 | 52757
4 | 11:43.33 | 4:22.24 | 52758 | 72431
5 | 16:05.57 | 2:14.12 | 72432 | 82493
6 | 18:19.69 | 4:07.22 | 82494 | 101040
7 | 22:27.16 | 3:58.00 | 101041 | 118890
8 | 26:25.16 | 4:37.50 | 118891 | 139715
9 | 31:02.66 | 4:45.03 | 139716 | 161093
10 | 35:47.69 | 3:55.01 | 161094 | 178719
11 | 39:42.70 | 3:49.13 | 178720 | 195907
12 | 43:32.08 | 3:58.44 | 195908 | 213801
13 | 47:30.52 | 3:36.18 | 213802 | 230019
14 | 51:06.70 | 2:20.41 | 230020 | 240560
15 | 53:27.36 | 2:26.69 | 240561 | 251579


Range status and errors

Selected range

Filename F:\Chloe - Walking in the Air.wav

Peak level 99.8 %
Range quality 100.0 %
Copy CRC AA7F85E2
Copy OK

No errors occurred


AccurateRip summary

Track 1 accurately ripped (confidence 14) [4521046B]
Track 2 accurately ripped (confidence 14) [9B03E53D]
Track 3 accurately ripped (confidence 14) [DDBCEF68]
Track 4 accurately ripped (confidence 14) [AE9C4948]
Track 5 accurately ripped (confidence 15) [4F30D79A]
Track 6 accurately ripped (confidence 15) [5EA285B7]
Track 7 accurately ripped (confidence 15) [1D18F648]
Track 8 accurately ripped (confidence 15) [C96509C7]
Track 9 accurately ripped (confidence 15) [903BB58E]
Track 10 accurately ripped (confidence 15) [C004AF7D]
Track 11 accurately ripped (confidence 15) [BD73B916]
Track 12 accurately ripped (confidence 15) [F473C244]
Track 13 accurately ripped (confidence 15) [4A285D1F]
Track 14 accurately ripped (confidence 15) [4AB1A91E]
Track 15 accurately ripped (confidence 15) [C766D366]

All tracks accurately ripped

End of status report

Download (HotFile)
MP3: Part 1 ~ Part 2
FLAC: Part 1 ~ Part 2 ~ Part 3 ~ Part 4
ArtWork: (Front, Back, Inside, CD, Inlay)

Mirror (Rapidshare)
MP3: Part 1 ~ Part 2
FLAC: Part 1 ~ Part 2 ~ Part 3 ~ Part 4

**Please wait for 5 seconds and click Skip Ads to get the original link. Thanks!

Related Posts by Categories



0 comments:

Post a Comment